<?xml version="1.0" standalone="no"?>
<!DOCTYPE svg PUBLIC "-//W3C//DTD SVG 1.1//EN" "http://www.w3.org/Graphics/SVG/1.1/DTD/svg11.dtd" >
<svg xmlns="http://www.w3.org/2000/svg">
<metadata>Generated by IcoMoon</metadata>
<defs>
<font id="icomoon" horiz-adv-x="1024">
<font-face units-per-em="1024" ascent="960" descent="-64" />
<missing-glyph horiz-adv-x="1024" />
<glyph unicode="&#x20;" horiz-adv-x="512" d="" />
<glyph unicode="&#xe900;" glyph-name="checkbox_on_01" d="M157.605-63.921c-86.999 0-157.526 70.527-157.526 157.526v0 708.869c0 86.999 70.527 157.526 157.526 157.526v0h708.869c86.999 0 157.526-70.527 157.526-157.526v0-708.869c0-86.999-70.527-157.526-157.526-157.526v0zM78.842 802.474v-708.869c0-43.5 35.263-78.763 78.763-78.763v0h708.869c43.5 0 78.763 35.263 78.763 78.763v0 708.869c0 43.5-35.263 78.763-78.763 78.763v0h-708.869c-43.5 0-78.763-35.263-78.763-78.763v0zM303.553 258.063l-162.882 163.040 100.108 99.95 162.803-162.882 379.638 379.638 100.108-100.108-479.746-479.825z" />
<glyph unicode="&#xe901;" glyph-name="radio_on_01" d="M0.079 448.039c0 282.748 229.213 511.961 511.961 511.961s511.961-229.213 511.961-511.961c0-282.748-229.213-511.961-511.961-511.961v0c-282.748 0-511.961 229.213-511.961 511.961v0zM78.842 448.039c0-239.248 193.949-433.197 433.197-433.197s433.197 193.949 433.197 433.197c0 239.248-193.949 433.197-433.197 433.197v0c-239.14-0.269-432.929-194.057-433.197-433.172v-0.026zM157.605 448.039c0 195.749 158.686 354.434 354.434 354.434s354.434-158.686 354.434-354.434c0-195.749-158.686-354.434-354.434-354.434v0c-195.749 0-354.434 158.686-354.434 354.434v0z" />
<glyph unicode="&#xe902;" glyph-name="checkbox_off_01" d="M157.538 881.231c-43.503 0-78.769-35.266-78.769-78.769v0-708.923c0-43.503 35.266-78.769 78.769-78.769v0h708.923c43.503 0 78.769 35.266 78.769 78.769v0 708.923c0 43.503-35.266 78.769-78.769 78.769v0h-708.923zM157.538 960h708.923c87.006 0 157.538-70.532 157.538-157.538v0-708.923c0-87.006-70.532-157.538-157.538-157.538v0h-708.923c-87.006 0-157.538 70.532-157.538 157.538v0 708.923c0 87.006 70.532 157.538 157.538 157.538v0z" />
<glyph unicode="&#xe903;" glyph-name="radio_off_01" d="M512 881.231c-239.267 0-433.231-193.964-433.231-433.231s193.964-433.231 433.231-433.231c239.267 0 433.231 193.964 433.231 433.231v0c-0.269 239.159-194.072 432.962-433.205 433.231h-0.026zM512 960c282.77 0 512-229.23 512-512s-229.23-512-512-512c-282.77 0-512 229.23-512 512v0c0 282.77 229.23 512 512 512v0z" />
<glyph unicode="&#xe904;" glyph-name="external_01" horiz-adv-x="1260" d="M155.624-24.543c-0.593-0.011-1.293-0.017-1.995-0.017-62.261 0-112.893 49.791-114.249 111.726l-0.002 0.126v488.845h87.105v-488.845c0.524-15.595 13.293-28.038 28.967-28.038 0.061 0 0.122 0 0.182 0.001h508.604v-83.798zM315.422 129.191c-0.616-0.012-1.343-0.019-2.072-0.019-62.246 0-112.86 49.801-114.172 111.731l-0.002 0.122v567.839c1.314 62.053 51.928 111.854 114.174 111.854 0.728 0 1.455-0.007 2.181-0.020l-0.109 0.002h788.831c0.616 0.012 1.343 0.019 2.072 0.019 62.246 0 112.86-49.801 114.172-111.731l0.002-0.122v-567.839c-1.314-62.053-51.928-111.854-114.174-111.854-0.728 0-1.455 0.007-2.181 0.020l0.109-0.002zM286.282 808.865v-567.839c0.525-15.638 13.328-28.116 29.046-28.116 0.033 0 0.066 0 0.099 0h788.826c0.051 0 0.111-0.001 0.17-0.001 15.702 0 28.488 12.487 28.969 28.073l0.001 0.044v567.839c-0.524 15.509-13.222 27.882-28.81 27.882-0.116 0-0.232-0.001-0.348-0.002h-788.813c-0.097 0.001-0.213 0.002-0.328 0.002-15.616 0-28.331-12.417-28.811-27.916l-0.001-0.044z" />
<glyph unicode="&#xe905;" glyph-name="arrow_05" d="M276.205-64c-0.028 0-0.062 0-0.095 0-14.318 0-27.263 5.878-36.555 15.351l-0.008 0.008c-9.020 9.222-14.585 21.855-14.585 35.787 0 14.34 5.896 27.303 15.395 36.598l0.009 0.009 434.157 424.224-434.157 424.224c-9.508 9.303-15.404 22.267-15.404 36.607 0 13.933 5.565 26.565 14.594 35.797l-0.009-0.010c9.303 9.508 22.267 15.404 36.607 15.404 13.933 0 26.565-5.565 35.797-14.594l-0.010 0.009 471.634-460.779c9.518-9.284 15.43-22.226 15.462-36.55v-0.006c-0.031-14.329-5.944-27.271-15.451-36.545l-0.011-0.010-471.634-460.779c-9.19-9.067-21.801-14.685-35.724-14.745h-0.012z" />
<glyph unicode="&#xe906;" glyph-name="excel_01" horiz-adv-x="862" d="M161.667-63.892c-89.286 0-161.667 72.381-161.667 161.667v0 592.78c5.389 5.389 265.996 269.445 269.445 269.445h431.113c89.286 0 161.667-72.381 161.667-161.667v0-700.558c0-89.286-72.381-161.667-161.667-161.667v0zM53.889 97.775c0.214-59.438 48.34-107.565 107.758-107.778h538.911c59.524 0 107.778 48.254 107.778 107.778v0 700.558c0 59.524-48.254 107.778-107.778 107.778v0h-405.030v-152.614c0-75.175 5.389-93.174-79.271-93.174h-162.368zM447.872 323.031c-13.069 9.541-22.133 23.895-24.587 40.406l-0.041 0.334 39.77 6.197c1.896-8.459 6.785-15.545 13.473-20.245l0.107-0.071c7.094-4.645 15.785-7.409 25.12-7.409 0.547 0 1.091 0.009 1.633 0.028l-0.079-0.002c0.765-0.058 1.656-0.092 2.556-0.092 7.045 0 13.613 2.042 19.144 5.566l-0.144-0.086c4.683 3.192 7.717 8.5 7.717 14.518 0 0.22-0.004 0.439-0.012 0.657l0.001-0.031c0.033 0.352 0.051 0.761 0.051 1.175 0 3.146-1.074 6.041-2.876 8.339l0.022-0.029c-3.289 3.382-7.467 5.883-12.156 7.126l-0.184 0.042q-9.592 3.449-29.262 8.514c-13.35 3.344-24.958 7.624-35.947 12.977l1.080-0.475c-7.63 3.6-13.887 9.027-18.382 15.735l-0.102 0.162c-3.698 6.074-5.887 13.419-5.887 21.275 0 0.364 0.005 0.727 0.014 1.089l-0.001-0.053c-0.004 0.22-0.006 0.479-0.006 0.74 0 10.395 3.27 20.026 8.838 27.921l-0.102-0.153c5.982 8.319 14.079 14.77 23.513 18.623l0.36 0.13c10.205 4.203 22.053 6.644 34.47 6.644 0.594 0 1.187-0.006 1.778-0.017l-0.089 0.001c0.334 0.004 0.727 0.006 1.122 0.006 12.593 0 24.636-2.355 35.712-6.649l-0.674 0.23c10.142-3.882 18.677-10.009 25.309-17.804l0.073-0.088c6.399-7.469 10.74-16.875 12.045-27.227l0.026-0.257-39.77-6.952c-0.8 7.299-4.621 13.572-10.168 17.626l-0.071 0.049c-6.406 4.403-14.306 7.068-22.824 7.167h-0.025c-1.238 0.14-2.673 0.22-4.127 0.22-6.655 0-12.917-1.678-18.389-4.633l0.205 0.101c-4.899-2.516-8.193-7.534-8.193-13.322 0-0.091 0.001-0.181 0.002-0.272v0.014c-0.005-0.128-0.008-0.278-0.008-0.429 0-3.226 1.277-6.153 3.352-8.305l-0.003 0.004c3.806-3.143 8.352-5.54 13.328-6.893l0.252-0.058c6.952-2.533 16.921-5.389 30.501-8.73 12.752-2.999 23.964-7.238 34.422-12.72l-0.795 0.38c7.434-3.758 13.506-9.26 17.837-15.988l0.108-0.179c3.417-6.108 5.43-13.403 5.43-21.167 0-0.667-0.015-1.331-0.044-1.991l0.003 0.094c0.028-0.623 0.044-1.353 0.044-2.087 0-15.906-7.506-30.058-19.17-39.108l-0.113-0.084c-13.406-9.554-30.118-15.275-48.167-15.275-1.653 0-3.294 0.048-4.923 0.143l0.225-0.010c-1.098-0.050-2.385-0.078-3.679-0.078-18.147 0-34.998 5.547-48.95 15.038l0.303-0.195zM709.018 313.223l-40.255 57.769-40.525-57.769h-46.237l63.859 88.324-62.565 86.223h45.913l39.231-55.883 38.746 55.883h45.913l-62.565-86.223 64.128-88.324zM345.537 313.223v237.543h39.016v-237.435zM268.853 313.223l-54.913 84.606-54.913-84.606h-47.961l78.732 117.801-76.684 115.161h47.692l53.081-82.073 52.596 82.073h47.961l-76.415-115.161 78.516-117.801z" />
<glyph unicode="&#xe907;" glyph-name="print_01" d="M182.056-64v238.107h-47.643c-74.297 0.153-134.467 60.418-134.467 134.737 0 0 0 0 0 0v0 242.095c0 0 0 0 0 0 0 74.318 60.17 134.583 134.453 134.737h47.658v274.324h659.833v-274.109h47.373c74.297-0.153 134.467-60.418 134.467-134.737 0 0 0 0 0 0v0-242.095c0 0 0 0 0 0 0-74.318-60.17-134.583-134.453-134.737h-47.388v-238.323zM235.951-10.105h551.936v323.045h-551.936zM889.371 228.109c44.648 0 80.842 36.194 80.842 80.842v0 242.095c0 44.648-36.194 80.842-80.842 80.842v0h-754.742c-44.648 0-80.842-36.194-80.842-80.842v0-242.095c0-44.648 36.194-80.842 80.842-80.842v0h47.643v138.617h659.833v-138.617zM787.887 686.215v223.070h-551.936v-223.070zM323.261 61.575c-14.883 0-26.947 12.065-26.947 26.947v0c0 14.883 12.065 26.947 26.947 26.947v0h377.263c14.883 0 26.947-12.065 26.947-26.947v0c0-14.883-12.065-26.947-26.947-26.947v0zM323.261 180.143c-14.883 0-26.947 12.065-26.947 26.947v0c0 14.883 12.065 26.947 26.947 26.947v0h377.263c14.883 0 26.947-12.065 26.947-26.947v0c0-14.883-12.065-26.947-26.947-26.947v0zM692.116 478.558c-14.883 0-26.947 12.065-26.947 26.947v0c0 14.883 12.065 26.947 26.947 26.947v0h128.485c14.883 0 26.947-12.065 26.947-26.947v0c0-14.883-12.065-26.947-26.947-26.947v0z" />
<glyph unicode="&#xe908;" glyph-name="download_02" horiz-adv-x="996" d="M0.111-63.889v237.070c0 15.285 12.391 27.676 27.676 27.676s27.676-12.391 27.676-27.676v0-181.718h885.622v181.718c0 15.285 12.391 27.676 27.676 27.676s27.676-12.391 27.676-27.676v0-237.070zM480.893 341.283l-221.405 182.659c-6.184 5.043-10.101 12.662-10.101 21.196 0 6.703 2.417 12.841 6.426 17.591l-0.033-0.041c5.114 6.192 12.792 10.108 21.385 10.108 6.598 0 12.657-2.309 17.413-6.163l-0.052 0.041 175.962-145.297v511.114c0 15.285 12.391 27.676 27.676 27.676s27.676-12.391 27.676-27.676v0-511.114l176.239 145.297c4.755 3.957 10.925 6.358 17.657 6.358 15.296 0 27.696-12.4 27.696-27.696 0-8.565-3.887-16.221-9.994-21.302l-0.045-0.036-221.405-182.659c-4.731-3.891-10.849-6.251-17.519-6.251s-12.788 2.359-17.567 6.289l0.048-0.038z" />
<glyph unicode="&#xe909;" glyph-name="play_02" horiz-adv-x="1485" d="M1310.276-64h-1135.497c-96.42 0.149-174.543 78.272-174.692 174.678v674.718c0.149 96.42 78.272 174.543 174.678 174.692h1135.511c96.48 0 174.692-78.212 174.692-174.692v0-674.791c-0.050-96.442-78.243-174.605-174.692-174.605v0zM648.806 595.767c-24.12 0-43.673-19.553-43.673-43.673v0-208.233c0-24.12 19.553-43.673 43.673-43.673v0c7.094 0.023 13.779 1.748 19.677 4.787l-0.243-0.114 208.145 104.247c14.429 7.023 24.196 21.575 24.196 38.408 0 0.116 0 0.232-0.001 0.348v-0.018c0 0.064 0.001 0.14 0.001 0.217 0 17.022-9.738 31.769-23.946 38.975l-0.249 0.114-208.145 103.985c-5.638 2.868-12.287 4.572-19.328 4.629h-0.019z" />
<glyph unicode="&#xe90a;" glyph-name="search_01" d="M690.409 193.699c-71.552-55.839-162.757-89.532-261.832-89.532-236.171 0-427.626 191.454-427.626 427.626s191.454 427.626 427.626 427.626c236.171 0 427.626-191.454 427.626-427.626 0-99.287-33.838-190.672-90.61-263.25l0.708 0.94 257.592-257.592-75.891-75.891zM107.040 532.053c0-177.35 143.771-321.121 321.121-321.121s321.121 143.771 321.121 321.121c0 177.35-143.771 321.121-321.121 321.121v0c-177.35 0-321.121-143.771-321.121-321.121v0z" />
<glyph unicode="&#xe90b;" glyph-name="info_01" horiz-adv-x="136" d="M0-64v750.633h136.479v-750.633zM0 823.658v136.479h136.479v-136.479z" />
<glyph unicode="&#xe90c;" glyph-name="arrow_01" horiz-adv-x="659" d="M145.99-64.138l-145.99 146.404 365.596 365.596-365.596 365.596 145.99 146.542 512-512z" />
<glyph unicode="&#xe90d;" glyph-name="arrow_02" horiz-adv-x="963" d="M962.949 448l-912.997 512-49.951-81.864 777.019-430.136-777.019-430.136 49.951-81.864z" />
<glyph unicode="&#xe90e;" glyph-name="arrow_03" horiz-adv-x="1300" d="M668.188 155.059l246.392 245.997h-741.908v117.072h719.033l-223.524 223.289 83.042 82.647 375.785-375.713-375.785-376.181z" />
<glyph unicode="&#xe90f;" glyph-name="arrow_up_01" horiz-adv-x="370" d="M294.156 773.523l-89.746 89.746v-927.269h-47.451v927.495l-89.746-89.746-32.271 32.374 145.702 145.681 145.846-145.846z" />
<glyph unicode="&#xe910;" glyph-name="play_01" d="M85.344 960l853.344-512-853.344-512z" />
<glyph unicode="&#xe911;" glyph-name="pause_01" horiz-adv-x="868" d="M585.076-64.094v1024.283h282.691v-1024zM0-64.094v1024.283h282.691v-1024z" />
<glyph unicode="&#xe912;" glyph-name="rss_01" d="M0 78.315c0.059 78.497 63.707 142.109 142.212 142.109 78.542 0 142.212-63.671 142.212-142.212s-63.671-142.212-142.212-142.212c-0.036 0-0.073 0-0.109 0h0.006c-78.51 0.117-142.109 63.789-142.109 142.315v0zM535.126-55.337c-0.323 290.656-235.859 526.193-526.484 526.515h-0.031v154.691c0.153 0 0.335 0 0.516 0 375.906 0 680.639-304.732 680.639-680.639 0-0.163 0-0.327 0-0.49v0.026zM869.309-55.337c0 0.016 0 0.034 0 0.052 0 475.18-385.209 860.389-860.389 860.389-0.109 0-0.218 0-0.326 0h0.017v154.691c0.337 0 0.736 0.001 1.135 0.001 560.129 0 1014.203-454.074 1014.203-1014.203 0-0.345 0-0.69-0.001-1.034v0.054z" />
<glyph unicode="&#xe913;" glyph-name="download_01" horiz-adv-x="874" d="M0 41.209h874.235v-105.209h-874.235zM163.968 585.929l232.933-232.933v607.004h105.209v-585.541l211.47 211.47 74.278-74.33-349.031-349.399-349.452 349.399z" />
<glyph unicode="&#xe914;" glyph-name="pdf_01" d="M921.6-64h-819.2c-56.554 0-102.4 45.846-102.4 102.4v0 819.2c0 56.554 45.846 102.4 102.4 102.4v0h819.2c56.554 0 102.4-45.846 102.4-102.4v0-819.2c0-56.554-45.846-102.4-102.4-102.4v0zM484.762 755.2c-0.187 0.002-0.409 0.004-0.631 0.004-16.249 0-30.848-7.061-40.898-18.281l-0.046-0.052c-14.193-18.253-22.754-41.498-22.754-66.742 0-5.572 0.417-11.047 1.222-16.395l-0.074 0.602c11.901-51.387 30.164-96.735 54.308-138.24l-1.265 2.355c-26.134-70.26-52.302-128.117-81.784-183.953l4.063 8.439c-34.854-10.55-63.845-21.682-91.851-34.586l4.401 1.818c-77.517-36.045-97.69-77.414-102.4-98.918-1.35-4.546-2.127-9.77-2.127-15.175 0-12.060 3.868-23.216 10.43-32.296l-0.111 0.162c9.746-13.165 25.223-21.607 42.672-21.607 0.082 0 0.164 0 0.246 0.001h-0.013c52.122 0 120.422 66.458 182.682 177.869l20.48 5.734c58.982 16.794 125.747 35.84 132.403 35.84 1.232-0.068 2.384-0.325 3.455-0.743l-0.076 0.026c39.027-40.84 87.377-72.433 141.655-91.392l2.524-0.768c4.691-0.697 10.122-1.105 15.644-1.126h0.023c0.727-0.022 1.583-0.034 2.441-0.034 24.999 0 47.544 10.502 63.466 27.334l0.038 0.041c10.309 10.195 16.693 24.341 16.693 39.978 0 0.165-0.001 0.33-0.002 0.495v-0.025c-3.789 44.032-37.786 68.301-101.069 71.68-3.277 0-7.27 0-11.878 0-44.964-0.825-88.283-5.558-130.312-13.877l4.667 0.77c-30.692 32.388-58.055 68.485-81.199 107.386l-1.541 2.796c38.605 110.797 44.954 188.928 18.637 226.099-10.903 15.151-28.488 24.901-48.35 24.901-1.327 0-2.644-0.044-3.949-0.129l0.177 0.009zM255.078 176.947c-0.158-0.007-0.343-0.011-0.529-0.011-2.569 0-4.969 0.728-7.003 1.989l0.057-0.033c-5.975 4.356-9.902 11.21-10.238 18.995l-0.002 0.051c0.388 21.533 10.758 40.567 26.665 52.718l0.164 0.12c26.84 22.408 58.634 39.935 93.405 50.686l1.93 0.514 4.301 1.536c2.049 0.885 4.429 1.44 6.927 1.535l0.037 0.001c3.789 0 5.734-2.253 5.734-6.656-11.542-26.189-26.364-48.687-44.303-68.282l0.168 0.186c-19.108-25.24-45.612-43.983-76.263-53.083l-1.049-0.267zM746.598 316.723c-4.676 0.019-9.257 0.353-13.742 0.983l0.533-0.061c-39.078 11.738-73.123 28.937-103.352 51.045l0.952-0.664s-0.717 0-0.717 0.717c27.429 7.675 58.926 12.086 91.454 12.086 0.501 0 1.001-0.001 1.501-0.003h-0.078c3.174 0 6.042 0 8.704 0 33.178-2.15 52.941-15.258 52.941-35.328 0-13.926-10.035-28.672-38.502-28.672zM458.547 357.683v0c13.824 22.835 48.742 113.562 49.050 114.483 7.066-13.005 60.518-76.902 66.662-84.173 0 0-90.112-20.48-115.61-30.72zM485.581 557.466c-4.198 0-7.885 9.114-8.090 9.523-14.314 25.123-24.553 54.492-28.932 85.74l-0.149 1.3c-1.843 22.63 0 61.44 30.72 65.536 0.658 0.043 1.427 0.068 2.202 0.068s1.543-0.025 2.306-0.073l-0.104 0.005c0.137 0.003 0.299 0.005 0.461 0.005 7.287 0 13.773-3.429 17.933-8.761l0.038-0.051c6.549-11.799 10.404-25.875 10.404-40.851 0-9.408-1.521-18.461-4.331-26.926l0.173 0.603c-2.458-12.186-4.71-23.245-6.656-33.28-2.045-19.415-6.822-37.196-13.972-53.712l0.455 1.181c-0.405-0.193-0.881-0.306-1.382-0.306s-0.977 0.113-1.402 0.314l0.020-0.008z" />
<glyph unicode="&#xe915;" glyph-name="graph_01" horiz-adv-x="945" d="M0 408.615h157.538v-472.615h-157.538v472.615zM787.692 960h157.538v-1024h-157.538v1024zM393.846 644.923h157.538v-708.923h-157.538v708.923z" />
<glyph unicode="&#xe916;" glyph-name="sheet_01" horiz-adv-x="1097" d="M-0.146-63.854v1024h1097.143v-1024zM72.997 9.289h950.857v877.714h-950.857zM731.282 116.882v184.978h-329.143v-185.125c0-20.198-16.374-36.571-36.571-36.571s-36.571 16.374-36.571 36.571v0 185.125h-182.857c-20.198 0-36.571 16.374-36.571 36.571s16.374 36.571 36.571 36.571v0h182.857v182.857h-182.857c-20.198 0-36.571 16.374-36.571 36.571s16.374 36.571 36.571 36.571v0h182.857v146.286c0 20.198 16.374 36.571 36.571 36.571s36.571-16.374 36.571-36.571v0-146.286h329.143v146.286c0 20.198 16.374 36.571 36.571 36.571s36.571-16.374 36.571-36.571v0-146.286h146.286c20.198 0 36.571-16.374 36.571-36.571s-16.374-36.571-36.571-36.571v0h-146.286v-182.857h146.286c20.198 0 36.571-16.374 36.571-36.571s-16.374-36.571-36.571-36.571v0h-146.286v-185.125c0-20.198-16.374-36.571-36.571-36.571s-36.571 16.374-36.571 36.571v0zM731.282 375.15v182.857h-329.143v-182.857z" />
<glyph unicode="&#xe917;" glyph-name="close_01" d="M512 520.397l-362.035 362.035-72.397-72.397 362.035-362.035-362.035-362.035 72.397-72.397 362.035 362.035 362.035-362.035 72.397 72.397-362.035 362.035 362.035 362.035-72.397 72.397-362.035-362.035z" />
</font>
</defs>
</svg>
